<?xml version="1.0" standalone="no"?> 
<!DOCTYPE svg PUBLIC "-//W3C//DTD SVG 1.1//EN" "http://www.w3.org/Graphics/SVG/1.1/DTD/svg11.dtd" >
<svg xmlns="http://www.w3.org/2000/svg">
<defs>
  <font id="VideoJS" horiz-adv-x="1792">
    <font-face font-family="VideoJS"
      units-per-em="1792" ascent="1792"
      descent="0" />
    <missing-glyph horiz-adv-x="0" />
    <glyph glyph-name="play"
      unicode="&#xF101;"
      horiz-adv-x="1792" d=" M597.3333333333334 1418.6666666666665V373.3333333333333L1418.6666666666667 896z" />
    <glyph glyph-name="play-circle"
      unicode="&#xF102;"
      horiz-adv-x="1792" d=" M746.6666666666667 560L1194.6666666666667 896L746.6666666666667 1232V560zM896 1642.6666666666667C483.4666666666667 1642.6666666666667 149.3333333333334 1308.5333333333333 149.3333333333334 896S483.4666666666667 149.3333333333333 896 149.3333333333333S1642.6666666666667 483.4666666666667 1642.6666666666667 896S1308.5333333333333 1642.6666666666667 896 1642.6666666666667zM896 298.6666666666665C566.72 298.6666666666665 298.6666666666667 566.7199999999998 298.6666666666667 896S566.72 1493.3333333333333 896 1493.3333333333333S1493.3333333333335 1225.28 1493.3333333333335 896S1225.2800000000002 298.6666666666665 896 298.6666666666665z" />
    <glyph glyph-name="pause"
      unicode="&#xF103;"
      horiz-adv-x="1792" d=" M448 373.3333333333333H746.6666666666667V1418.6666666666665H448V373.3333333333333zM1045.3333333333335 1418.6666666666665V373.3333333333333H1344V1418.6666666666665H1045.3333333333335z" />
    <glyph glyph-name="volume-mute"
      unicode="&#xF104;"
      horiz-adv-x="1792" d=" M1232 896C1232 1027.7866666666666 1155.8400000000001 1141.6533333333332 1045.3333333333335 1196.5333333333333V1031.52L1228.6399999999999 848.2133333333334C1230.88 863.8933333333334 1232 879.9466666666667 1232 896.0000000000001zM1418.6666666666667 896C1418.6666666666667 825.8133333333333 1403.3600000000001 759.7333333333333 1378.3466666666668 698.8799999999999L1491.466666666667 585.7599999999998C1540 678.72 1568 783.9999999999999 1568 896C1568 1215.5733333333333 1344.3733333333334 1482.88 1045.3333333333335 1550.8266666666666V1396.6399999999999C1261.1200000000001 1332.4266666666667 1418.6666666666667 1132.6933333333332 1418.6666666666667 896zM319.2000000000001 1568L224 1472.8L576.8 1120H224V672H522.6666666666667L896 298.6666666666665V800.8L1213.7066666666667 483.0933333333332C1163.68 444.6399999999999 1107.3066666666666 413.6533333333332 1045.3333333333335 394.9866666666665V240.7999999999998C1148 264.32 1241.7066666666667 311.3599999999997 1320.48 375.9466666666663L1472.8000000000002 224L1568 319.1999999999998L896 991.1999999999998L319.2000000000001 1568zM896 1493.3333333333333L739.9466666666667 1337.28L896 1181.2266666666667V1493.3333333333333z" />
    <glyph glyph-name="volume-low"
      unicode="&#xF105;"
      horiz-adv-x="1792" d=" M522.6666666666667 1120V672H821.3333333333334L1194.6666666666667 298.6666666666665V1493.3333333333333L821.3333333333334 1120H522.6666666666667z" />
    <glyph glyph-name="volume-mid"
      unicode="&#xF106;"
      horiz-adv-x="1792" d=" M1381.3333333333335 896C1381.3333333333335 1027.7866666666666 1305.1733333333334 1141.6533333333332 1194.6666666666667 1196.5333333333333V595.0933333333332C1305.1733333333334 650.3466666666666 1381.3333333333335 764.2133333333331 1381.3333333333335 896zM373.3333333333334 1120V672H672L1045.3333333333335 298.6666666666665V1493.3333333333333L672 1120H373.3333333333334z" />
    <glyph glyph-name="volume-high"
      unicode="&#xF107;"
      horiz-adv-x="1792" d=" M224 1120V672H522.6666666666667L896 298.6666666666665V1493.3333333333333L522.6666666666667 1120H224zM1232 896C1232 1027.7866666666666 1155.8400000000001 1141.6533333333332 1045.3333333333335 1196.5333333333333V595.0933333333332C1155.8400000000001 650.3466666666666 1232 764.2133333333331 1232 896zM1045.3333333333335 1550.8266666666666V1396.6399999999999C1261.1200000000001 1332.4266666666667 1418.6666666666667 1132.6933333333332 1418.6666666666667 896S1261.1200000000001 459.5733333333333 1045.3333333333335 395.3600000000002V241.1733333333332C1344.3733333333334 309.1199999999999 1568 576.0533333333333 1568 896S1344.3733333333334 1482.88 1045.3333333333335 1550.8266666666666z" />
    <glyph glyph-name="fullscreen-enter"
      unicode="&#xF108;"
      horiz-adv-x="1792" d=" M522.6666666666667 746.6666666666665H373.3333333333334V373.3333333333333H746.6666666666667V522.6666666666665H522.6666666666667V746.6666666666665zM373.3333333333334 1045.3333333333333H522.6666666666667V1269.3333333333333H746.6666666666667V1418.6666666666665H373.3333333333334V1045.3333333333333zM1269.3333333333335 522.6666666666665H1045.3333333333335V373.3333333333333H1418.6666666666667V746.6666666666665H1269.3333333333335V522.6666666666665zM1045.3333333333335 1418.6666666666665V1269.3333333333333H1269.3333333333335V1045.3333333333333H1418.6666666666667V1418.6666666666665H1045.3333333333335z" />
    <glyph glyph-name="fullscreen-exit"
      unicode="&#xF109;"
      horiz-adv-x="1792" d=" M373.3333333333334 597.3333333333333H597.3333333333334V373.3333333333333H746.6666666666667V746.6666666666665H373.3333333333334V597.3333333333333zM597.3333333333334 1194.6666666666665H373.3333333333334V1045.3333333333333H746.6666666666667V1418.6666666666665H597.3333333333334V1194.6666666666665zM1045.3333333333335 373.3333333333333H1194.6666666666667V597.3333333333333H1418.6666666666667V746.6666666666665H1045.3333333333335V373.3333333333333zM1194.6666666666667 1194.6666666666665V1418.6666666666665H1045.3333333333335V1045.3333333333333H1418.6666666666667V1194.6666666666665H1194.6666666666667z" />
    <glyph glyph-name="spinner"
      unicode="&#xF10A;"
      horiz-adv-x="1792" d=" M701.8666666666668 1008L1057.6533333333334 1624.3733333333334C1005.7600000000002 1635.9466666666667 951.6266666666666 1642.6666666666667 896 1642.6666666666667C716.8000000000001 1642.6666666666667 552.9066666666668 1579.5733333333333 424.1066666666667 1474.2933333333333L697.76 1000.5333333333334L701.8666666666666 1008zM1608.32 1120C1539.6266666666666 1338.4 1373.1200000000001 1512.7466666666667 1160.6933333333332 1593.3866666666668L887.4133333333334 1120H1608.32zM1627.7333333333336 1045.3333333333333H1068.48L1090.1333333333334 1008L1445.92 392C1567.6266666666668 524.9066666666668 1642.6666666666667 701.4933333333333 1642.6666666666667 896C1642.6666666666667 947.1466666666666 1637.44 997.1733333333332 1627.7333333333336 1045.3333333333333zM637.2800000000001 896L346.08 1400C224.3733333333333 1267.0933333333332 149.3333333333334 1090.5066666666667 149.3333333333334 896C149.3333333333334 844.8533333333332 154.56 794.8266666666666 164.2666666666667 746.6666666666665H723.5200000000001L637.2800000000002 896zM183.68 672C252.3733333333334 453.5999999999999 418.88 279.2533333333334 631.3066666666667 198.6133333333332L904.5866666666668 672H183.68zM1025.1733333333334 672L733.9733333333334 167.6266666666666C786.24 156.0533333333333 840.3733333333334 149.3333333333333 896 149.3333333333333C1075.2 149.3333333333333 1239.0933333333332 212.4266666666665 1367.8933333333334 317.7066666666665L1094.24 791.4666666666666L1025.1733333333334 672z" />
    <glyph glyph-name="subtitles"
      unicode="&#xF10B;"
      horiz-adv-x="1792" d=" M1493.3333333333335 1493.3333333333333H298.6666666666667C216.16 1493.3333333333333 149.3333333333334 1426.5066666666667 149.3333333333334 1344V448C149.3333333333334 365.4933333333331 216.16 298.6666666666665 298.6666666666667 298.6666666666665H1493.3333333333335C1575.8400000000001 298.6666666666665 1642.6666666666667 365.4933333333331 1642.6666666666667 448V1344C1642.6666666666667 1426.5066666666667 1575.8400000000001 1493.3333333333333 1493.3333333333335 1493.3333333333333zM298.6666666666667 896H597.3333333333334V746.6666666666665H298.6666666666667V896zM1045.3333333333335 448H298.6666666666667V597.3333333333333H1045.3333333333335V448zM1493.3333333333335 448H1194.6666666666667V597.3333333333333H1493.3333333333335V448zM1493.3333333333335 746.6666666666665H746.6666666666667V896H1493.3333333333335V746.6666666666665z" />
    <glyph glyph-name="captions"
      unicode="&#xF10C;"
      horiz-adv-x="1792" d=" M1418.6666666666667 1493.3333333333333H373.3333333333334C290.8266666666667 1493.3333333333333 224 1426.5066666666667 224 1344V448C224 365.4933333333331 290.8266666666667 298.6666666666665 373.3333333333334 298.6666666666665H1418.6666666666667C1501.1733333333334 298.6666666666665 1568 365.4933333333331 1568 448V1344C1568 1426.5066666666667 1501.1733333333334 1493.3333333333333 1418.6666666666667 1493.3333333333333zM821.3333333333334 970.6666666666666H709.3333333333334V1008H560V783.9999999999999H709.3333333333334V821.3333333333333H821.3333333333334V746.6666666666665C821.3333333333334 705.5999999999999 788.1066666666667 672 746.6666666666667 672H522.6666666666667C481.2266666666667 672 448 705.5999999999999 448 746.6666666666665V1045.3333333333333C448 1086.4 481.2266666666667 1120 522.6666666666667 1120H746.6666666666667C788.1066666666667 1120 821.3333333333334 1086.4 821.3333333333334 1045.3333333333333V970.6666666666666zM1344 970.6666666666666H1232V1008H1082.6666666666667V783.9999999999999H1232V821.3333333333333H1344V746.6666666666665C1344 705.5999999999999 1310.7733333333333 672 1269.3333333333335 672H1045.3333333333335C1003.8933333333334 672 970.6666666666669 705.5999999999999 970.6666666666669 746.6666666666665V1045.3333333333333C970.6666666666669 1086.4 1003.8933333333334 1120 1045.3333333333335 1120H1269.3333333333335C1310.7733333333333 1120 1344 1086.4 1344 1045.3333333333333V970.6666666666666z" />
    <glyph glyph-name="hd"
      unicode="&#xF10D;"
      horiz-adv-x="1792" d=" M1418.6666666666667 1568H373.3333333333334C290.4533333333333 1568 224 1500.8 224 1418.6666666666665V373.3333333333333C224 291.1999999999998 290.4533333333334 224 373.3333333333334 224H1418.6666666666667C1500.8000000000002 224 1568 291.1999999999998 1568 373.3333333333333V1418.6666666666665C1568 1500.8 1500.8000000000002 1568 1418.6666666666667 1568zM821.3333333333334 672H709.3333333333334V821.3333333333333H560V672H448V1120H560V933.3333333333331H709.3333333333334V1120H821.3333333333334V672zM970.6666666666669 1120H1269.3333333333335C1310.4 1120 1344 1086.4 1344 1045.3333333333333V746.6666666666665C1344 705.5999999999999 1310.4 672 1269.3333333333335 672H970.6666666666669V1120zM1082.6666666666667 783.9999999999999H1232V1008H1082.6666666666667V783.9999999999999z" />
    <glyph glyph-name="chapters"
      unicode="&#xF10E;"
      horiz-adv-x="1792" d=" M224 821.3333333333333H373.3333333333334V970.6666666666666H224V821.3333333333333zM224 522.6666666666665H373.3333333333334V672H224V522.6666666666665zM224 1120H373.3333333333334V1269.3333333333333H224V1120zM522.6666666666667 821.3333333333333H1568V970.6666666666666H522.6666666666667V821.3333333333333zM522.6666666666667 522.6666666666665H1568V672H522.6666666666667V522.6666666666665zM522.6666666666667 1269.3333333333333V1120H1568V1269.3333333333333H522.6666666666667z" />
    <glyph glyph-name="downloading"
      unicode="&#xF10F;"
      horiz-adv-x="1792" d=" M815.7183999999999 140Q671.9999999999999 153.0816000000002 547.8591999999999 217.4592Q423.7183999999999 281.8816000000002 332.2815999999999 384.5184Q240.8 487.2 189.4592 618.7775999999999Q138.1184 750.3999999999999 138.1184 897.8815999999999Q138.1184 1192.8 332.2815999999999 1409.3183999999999Q526.4 1625.8816 817.5999999999999 1655.7184V1513.8816Q586.1184 1480.2815999999998 433.0816 1305.7408Q280 1131.2 280 897.8816000000002Q280 664.5184000000002 432.1408 490.0224000000003Q584.2816 315.4816000000001 815.7183999999999 281.8816000000002zM896 518.9184L517.0816 896L610.4 989.3184L830.6816 769.0816V1273.0816H961.3184V769.0816L1179.7184 989.3184L1273.0816 896zM976.2816 140V281.8816000000002Q1058.3999999999999 293.0816000000002 1134.9184 324.8000000000002Q1211.4816 356.5184 1276.8 408.8000000000002L1381.3183999999999 306.1184000000001Q1293.6 235.2000000000001 1190.9183999999998 192.2816000000003Q1088.2815999999998 149.3184000000001 976.2815999999998 140zM1280.5184 1385.0816Q1211.4816 1435.4816 1134.9184 1468.1408000000001Q1058.4 1500.8000000000002 976.2816 1513.8816000000002V1655.7184Q1088.2816 1644.5184 1189.9776 1601.6Q1291.7184 1558.6816 1381.3184 1489.6zM1485.8816 418.1184000000001L1385.0816 518.9184000000002Q1437.3183999999999 586.1184000000001 1468.1408 662.6816000000001Q1498.9183999999998 739.2 1510.1183999999998 821.3184000000001H1653.8816Q1640.8 709.3184000000001 1598.8224 606.6816000000001Q1556.8 504 1485.8816 418.1184000000001zM1510.1183999999998 974.4Q1497.0816 1056.5184 1467.1999999999998 1133.9776000000002Q1437.3183999999999 1211.4816 1385.0816 1276.8000000000002L1491.4816 1375.7184Q1560.5184 1289.8816000000002 1601.6 1187.2Q1642.6816 1084.5184 1653.8816 974.4z" />
    <glyph glyph-name="file-download"
      unicode="&#xF110;"
      horiz-adv-x="1792" d=" M403.2000000000001 278.1333333333335Q352.8000000000001 278.1333333333335 314.5333333333334 315.4666666666667T276.2666666666667 405.0666666666666V692.5333333333333H403.2000000000001V405.0666666666666H1386.9333333333336V692.5333333333333H1513.866666666667V405.0666666666666Q1513.866666666667 352.8 1476.5333333333335 315.4666666666667T1386.9333333333336 278.1333333333335zM896 593.5999999999999L518.9333333333334 968.8L610.4000000000001 1060.2666666666664L832.5333333333334 838.1333333333332V1525.0666666666666H959.4666666666666V838.1333333333333L1181.6 1060.2666666666667L1273.0666666666668 968.8z" />
    <glyph glyph-name="file-download-done"
      unicode="&#xF111;"
      horiz-adv-x="1792" d=" M365.8666666666668 280V408.8H1426.1333333333334V280zM709.3333333333334 617.8666666666666L276.2666666666667 1050.9333333333334L367.7333333333334 1138.6666666666665L709.3333333333334 797.0666666666666L1426.1333333333334 1513.8666666666668L1515.7333333333336 1424.2666666666667z" />
    <glyph glyph-name="file-download-off"
      unicode="&#xF112;"
      horiz-adv-x="1792" d=" M182.9333333333334 1614.6666666666667L1614.6666666666667 182.9333333333332L1530.6666666666667 100.8L1353.3333333333335 278.1333333333335Q1351.466666666667 276.2666666666669 1350.5333333333333 277.2000000000001Q1349.6000000000001 278.1333333333335 1347.7333333333331 278.1333333333335H403.2000000000001Q352.8000000000001 278.1333333333335 314.5333333333334 315.4666666666667T276.2666666666667 405.0666666666666V692.5333333333333H403.2000000000001V405.0666666666666H1226.4L965.0666666666668 666.4000000000001L896 599.2L518.9333333333334 974.4L588 1043.4666666666667L100.8 1530.6666666666665zM1181.6 1065.8666666666668L1273.0666666666668 974.4L1133.0666666666668 832.5333333333333L1041.6000000000001 925.8666666666666zM959.4666666666666 1525.0666666666666V1004.2666666666667L832.5333333333334 1133.0666666666666V1525.0666666666666z" />
    <glyph glyph-name="share"
      unicode="&#xF113;"
      horiz-adv-x="1792" d=" M1344 590.9866666666665C1287.2533333333333 590.9866666666665 1236.1066666666668 568.9599999999998 1197.2800000000002 533.4933333333331L665.2800000000001 843.7333333333333C669.3866666666667 860.5333333333333 672 878.08 672 896S669.3866666666667 931.4666666666666 665.2800000000001 948.2666666666667L1191.68 1255.52C1231.6266666666668 1218.1866666666665 1285.0133333333335 1195.04 1344 1195.04C1467.5733333333335 1195.04 1568 1295.4666666666665 1568 1419.04S1467.5733333333335 1643.04 1344 1643.04S1120 1542.6133333333332 1120 1419.04C1120 1401.12 1122.6133333333335 1383.5733333333333 1126.72 1366.773333333333L600.3199999999999 1059.5199999999998C560.3733333333333 1096.853333333333 506.9866666666666 1119.9999999999998 448 1119.9999999999998C324.4266666666666 1119.9999999999998 224 1019.5733333333332 224 895.9999999999998S324.4266666666666 671.9999999999998 448 671.9999999999998C506.9866666666666 671.9999999999998 560.3733333333333 695.1466666666665 600.3199999999999 732.4799999999998L1132.32 422.2399999999998C1128.5866666666666 406.5599999999997 1126.3466666666666 390.133333333333 1126.3466666666666 373.3333333333331C1126.3466666666666 253.1199999999997 1223.7866666666669 155.6799999999996 1344 155.6799999999996S1561.6533333333334 253.1199999999997 1561.6533333333334 373.3333333333331S1464.2133333333334 590.9866666666662 1344 590.9866666666662z" />
    <glyph glyph-name="cog"
      unicode="&#xF114;"
      horiz-adv-x="1792" d=" M1450.7733333333333 823.1999999999999C1453.76 847.0933333333334 1456 871.3599999999999 1456 896S1453.76 944.9066666666666 1450.7733333333333 968.8L1608.6933333333336 1092.3733333333332C1622.8800000000003 1103.5733333333333 1626.986666666667 1123.7333333333331 1617.6533333333336 1140.1599999999999L1468.3200000000004 1398.8799999999999C1458.986666666667 1414.9333333333334 1439.5733333333335 1421.6533333333332 1422.7733333333338 1414.9333333333334L1236.8533333333337 1339.8933333333332C1198.4000000000003 1369.3866666666668 1156.2133333333338 1394.3999999999999 1110.6666666666672 1413.44L1082.6666666666667 1611.3066666666666C1079.3066666666668 1628.8533333333332 1064 1642.6666666666667 1045.3333333333335 1642.6666666666667H746.6666666666667C728 1642.6666666666667 712.6933333333334 1628.8533333333332 709.7066666666668 1611.3066666666666L681.7066666666668 1413.44C636.1600000000002 1394.4 593.9733333333335 1369.76 555.5200000000001 1339.8933333333332L369.6 1414.9333333333334C352.8000000000001 1421.28 333.3866666666667 1414.9333333333334 324.0533333333334 1398.88L174.72 1140.1599999999999C165.3866666666667 1124.1066666666666 169.4933333333334 1103.9466666666667 183.68 1092.3733333333332L341.2266666666667 968.8C338.2400000000001 944.9066666666666 336 920.64 336 896S338.2400000000001 847.0933333333334 341.2266666666667 823.1999999999999L183.68 699.6266666666668C169.4933333333334 688.4266666666667 165.3866666666667 668.2666666666667 174.72 651.8399999999999L324.0533333333334 393.1199999999999C333.3866666666667 377.0666666666666 352.8 370.3466666666666 369.6 377.0666666666666L555.5200000000001 452.1066666666666C593.9733333333334 422.6133333333333 636.16 397.5999999999999 681.7066666666668 378.56L709.7066666666668 180.6933333333334C712.6933333333334 163.1466666666668 728 149.3333333333333 746.6666666666667 149.3333333333333H1045.3333333333335C1064 149.3333333333333 1079.3066666666668 163.1466666666665 1082.2933333333333 180.6933333333334L1110.2933333333333 378.56C1155.84 397.5999999999999 1198.0266666666666 422.24 1236.48 452.1066666666666L1422.3999999999999 377.0666666666666C1439.2 370.7199999999998 1458.6133333333332 377.0666666666666 1467.9466666666665 393.1199999999999L1617.2799999999997 651.8399999999999C1626.6133333333332 667.8933333333332 1622.5066666666664 688.0533333333333 1608.3199999999997 699.6266666666668L1450.773333333333 823.1999999999999zM896 634.6666666666665C751.52 634.6666666666665 634.6666666666667 751.52 634.6666666666667 896S751.52 1157.3333333333333 896 1157.3333333333333S1157.3333333333335 1040.48 1157.3333333333335 896S1040.48 634.6666666666665 896 634.6666666666665z" />
    <glyph glyph-name="square"
      unicode="&#xF115;"
      horiz-adv-x="1792" d=" M1344 1493.3333333333333H448C365.4933333333334 1493.3333333333333 298.6666666666667 1426.5066666666667 298.6666666666667 1344V448C298.6666666666667 365.4933333333331 365.4933333333334 298.6666666666665 448 298.6666666666665H1344C1426.506666666667 298.6666666666665 1493.3333333333335 365.4933333333331 1493.3333333333335 448V1344C1493.3333333333335 1426.5066666666667 1426.506666666667 1493.3333333333333 1344 1493.3333333333333zM1344 448H448V1344H1344V448z" />
    <glyph glyph-name="circle"
      unicode="&#xF116;"
      horiz-adv-x="1792" d=" M149.3333333333334 896C149.3333333333334 483.6273867930074 483.6273867930075 149.3333333333333 896 149.3333333333333C1308.3726132069926 149.3333333333333 1642.6666666666667 483.6273867930074 1642.6666666666667 896C1642.6666666666667 1308.3726132069926 1308.3726132069926 1642.6666666666667 896 1642.6666666666667C483.6273867930075 1642.6666666666667 149.3333333333334 1308.3726132069926 149.3333333333334 896z" />
    <glyph glyph-name="circle-outline"
      unicode="&#xF117;"
      horiz-adv-x="1792" d=" M896 1642.6666666666667C483.4666666666667 1642.6666666666667 149.3333333333334 1308.5333333333333 149.3333333333334 896S483.4666666666667 149.3333333333333 896 149.3333333333333S1642.6666666666667 483.4666666666667 1642.6666666666667 896S1308.5333333333333 1642.6666666666667 896 1642.6666666666667zM896 298.6666666666665C566.72 298.6666666666665 298.6666666666667 566.7199999999998 298.6666666666667 896S566.72 1493.3333333333333 896 1493.3333333333333S1493.3333333333335 1225.28 1493.3333333333335 896S1225.2800000000002 298.6666666666665 896 298.6666666666665z" />
    <glyph glyph-name="circle-inner-circle"
      unicode="&#xF118;"
      horiz-adv-x="1792" d=" M896 1642.6666666666667C484.2133333333334 1642.6666666666667 149.3333333333334 1307.7866666666666 149.3333333333334 896S484.2133333333334 149.3333333333333 896 149.3333333333333S1642.6666666666667 484.2133333333331 1642.6666666666667 896S1307.7866666666669 1642.6666666666667 896 1642.6666666666667zM896 298.6666666666665C566.72 298.6666666666665 298.6666666666667 566.7199999999998 298.6666666666667 896S566.72 1493.3333333333333 896 1493.3333333333333S1493.3333333333335 1225.28 1493.3333333333335 896S1225.2800000000002 298.6666666666665 896 298.6666666666665zM1120 896C1120 772.4266666666666 1019.5733333333334 672 896 672S672 772.4266666666666 672 896S772.4266666666667 1120 896 1120S1120 1019.5733333333332 1120 896z" />
    <glyph glyph-name="cancel"
      unicode="&#xF119;"
      horiz-adv-x="1792" d=" M896 1642.6666666666667C483.4666666666667 1642.6666666666667 149.3333333333334 1308.5333333333333 149.3333333333334 896S483.4666666666667 149.3333333333333 896 149.3333333333333S1642.6666666666667 483.4666666666667 1642.6666666666667 896S1308.5333333333333 1642.6666666666667 896 1642.6666666666667zM1269.3333333333335 628.3199999999999L1163.68 522.6666666666665L896 790.3466666666667L628.3199999999999 522.6666666666665L522.6666666666667 628.3199999999999L790.3466666666668 896L522.6666666666667 1163.68L628.3199999999999 1269.3333333333333L896 1001.6533333333332L1163.68 1269.3333333333333L1269.3333333333335 1163.68L1001.6533333333334 896L1269.3333333333335 628.3199999999999z" />
    <glyph glyph-name="repeat"
      unicode="&#xF11A;"
      horiz-adv-x="1792" d=" M522.6666666666667 1269.3333333333333H1269.3333333333335V1045.3333333333333L1568 1344L1269.3333333333335 1642.6666666666667V1418.6666666666665H373.3333333333334V970.6666666666666H522.6666666666667V1269.3333333333333zM1269.3333333333335 522.6666666666665H522.6666666666667V746.6666666666665L224 448L522.6666666666667 149.3333333333333V373.3333333333333H1418.6666666666667V821.3333333333333H1269.3333333333335V522.6666666666665z" />
    <glyph glyph-name="replay"
      unicode="&#xF11B;"
      horiz-adv-x="1792" d=" M896 1418.6666666666665V1717.3333333333333L522.6666666666667 1344L896 970.6666666666666V1269.3333333333333C1143.52 1269.3333333333333 1344 1068.8533333333332 1344 821.3333333333333S1143.52 373.3333333333333 896 373.3333333333333S448 573.813333333333 448 821.3333333333333H298.6666666666667C298.6666666666667 491.3066666666664 565.9733333333334 224 896 224S1493.3333333333335 491.3066666666664 1493.3333333333335 821.3333333333333S1226.0266666666669 1418.6666666666665 896 1418.6666666666665z" />
    <glyph glyph-name="replay-5"
      unicode="&#xF11C;"
      horiz-adv-x="1792" d=" M660.3714133333334 1717.3333333333333L335.7084266666667 1392.6703466666665L660.3714133333334 1068.0069866666663L753.2063466666667 1160.7556799999998L591.9532266666668 1322.0088H640.5276266666667C824.5865600000001 1322.0088 979.1965866666668 1257.7249066666666 1104.3565866666668 1129.1780266666667C1229.5169600000002 1000.6311466666668 1292.09696 844.0435733333334 1292.09696 659.3958933333333H1424.6198400000003C1424.6198400000003 769.8312533333333 1403.987946666667 873.2897599999998 1362.7585066666668 969.736693333333C1321.5294400000002 1066.1836266666664 1264.85632 1150.4654933333334 1192.7051733333333 1222.61664C1120.5540266666667 1294.7677866666668 1036.27216 1351.4409066666665 939.8252266666668 1392.6703466666665C843.3782933333333 1433.899413333333 739.9194133333334 1454.5313066666663 629.4840533333335 1454.5313066666663H578.6666666666667L750.9629866666667 1626.8279999999995zM358.7445866666667 908.7385066666668V391.2447466666668H782.7134933333334V204.2809066666669H358.7445866666667V37.3333333333333H832.8405866666668C864.0012266666668 37.3333333333333 890.7352533333335 48.4653866666667 912.9926400000002 70.7227733333334C935.2504000000002 92.9805333333338 946.38208 119.6279466666665 946.38208 150.788586666667V441.2856000000004C946.38208 472.4462400000009 935.2504000000002 499.1802666666667 912.9926400000002 521.4376533333336C890.7352533333335 543.6950400000005 864.0012266666668 554.8270933333338 832.8405866666668 554.8270933333338H525.6921600000001V745.0695466666673H946.38208V908.7385066666671z" />
    <glyph glyph-name="replay-10"
      unicode="&#xF11D;"
      horiz-adv-x="1792" d=" M1579.7522346666667 685.8215466666668C1579.7522346666667 872.3672533333332 1516.5291306666668 1030.5743466666665 1390.0825493333332 1160.4420799999998C1263.635968 1290.3101866666666 1107.4374453333332 1355.2440533333333 921.4866453333332 1355.2440533333333H872.395328L1035.2882399999999 1192.3512533333333L941.5690666666663 1098.6318933333332L613.5519039999998 1426.6496533333334L941.5690666666668 1754.6666666666667L1033.0569013333334 1663.17872L859.0069226666667 1489.1288533333336H910.3295786666667C1021.8998346666668 1489.1288533333336 1126.4041973333335 1468.3024533333335 1223.8426293333337 1426.6496533333334C1321.2807253333335 1384.9964799999998 1406.4460480000002 1327.7234133333332 1479.3390453333336 1254.8308266666668C1552.2316693333335 1181.9382400000004 1609.5045493333337 1096.7726933333336 1651.1573120000003 999.3345600000002C1692.8104480000004 901.896426666667 1713.6369973333335 797.3922133333334 1713.6369973333335 685.8215466666668zM305.4965498666667 74.6666666666665V808.5194133333331H118.5717866666667V978.1359466666667H478.5748426666667V74.6666666666665zM814.3472586666667 74.6666666666665C771.1928 74.6666666666665 734.9617333333334 89.3203733333328 705.654096 118.6285333333331C676.5766186666667 147.7056 662.0380853333335 183.8214933333331 662.0380853333335 226.9754666666668V825.8267733333334C662.0380853333335 868.9814933333333 676.6923146666668 905.2123733333336 705.9999520000001 934.5205333333334C735.0773920000001 963.5976000000002 771.1928000000001 978.135946666667 814.3472586666667 978.135946666667H1101.657648C1144.8117706666667 978.135946666667 1181.0428000000002 963.4822400000002 1210.3508480000003 934.1740800000003C1239.4279146666668 905.0966400000005 1253.9664480000004 868.9814933333339 1253.9664480000004 825.826773333334V226.9754666666677C1253.9664480000004 183.8214933333343 1239.3126293333335 147.5902400000016 1210.004618666667 118.2824533333346C1180.9275146666669 89.2053866666679 1144.811770666667 74.6666666666677 1101.6576480000003 74.6666666666677zM835.1163893333334 247.7451200000001H1080.888144V808.5194133333335H835.1163893333334z" />
    <glyph glyph-name="replay-30"
      unicode="&#xF11E;"
      horiz-adv-x="1792" d=" M972.4166666666669 1754.6666666666667L646.4062453333333 1428.6563199999998L972.4166666666669 1102.645973333333L1065.604176 1195.7605333333331L903.7291573333334 1357.7084266666664H952.5104213333334C1137.3383840000001 1357.7084266666664 1292.5460426666668 1293.1251199999997 1418.2291573333334 1164.0417599999996C1543.9119733333334 1034.9580266666665 1606.7916480000001 877.7630399999995 1606.7916480000001 692.3436799999995H1739.8645973333334C1739.8645973333334 803.2404799999996 1719.1409386666667 907.0670933333328 1677.7395786666668 1003.9164799999994C1636.3382186666668 1100.7662399999992 1579.4214240000001 1185.4330133333326 1506.968736 1257.8854399999993C1434.516384 1330.3378666666663 1349.8497226666668 1387.2547733333327 1253 1428.6563199999991C1156.15024 1470.0578666666659 1052.323552 1490.781226666666 941.427088 1490.781226666666H890.3854026666668L1063.4166666666667 1663.8126399999996zM95.375 988.1666666666666V813.1666666666666H479.791648V617.1666666666665H219.2604176V442.1666666666665H479.7916480000001V249.6666666666665H95.375V74.6666666666665H498.822912C538.4290986666667 74.6666666666665 571.6348213333334 89.4114666666665 598.427088 118.9272000000001C625.2193546666666 148.4425600000004 638.604176 185.1079999999997 638.604176 228.7394666666665V834.1666666666666C638.604176 877.7981333333333 625.2193546666666 914.3907733333332 598.427088 943.906133333333C571.6348213333333 973.4214933333328 538.4290986666667 988.1666666666666 498.822912 988.1666666666666zM934.7187360000001 982.9164799999998C891.8251253333334 982.9164799999998 855.9225546666668 968.3598399999998 827.0208426666667 939.4582399999998C797.8899413333334 910.3274133333332 783.2708426666667 874.3619733333329 783.2708426666667 831.4685866666665V236.2498133333327C783.2708426666667 193.3567999999991 797.7549066666667 157.4540799999991 826.6562453333333 128.5521066666661C855.78752 99.4212799999991 891.8251253333334 84.8019199999999 934.7187360000001 84.8019199999999H1220.2604213333334C1263.1540320000001 84.8019199999999 1299.05664 99.285386666666 1327.9583146666669 128.1873600000004C1357.0892906666668 157.3181866666673 1371.6354026666668 193.3568000000003 1371.6354026666668 236.2498133333338V831.468586666667C1371.6354026666668 874.3619733333334 1357.2242506666669 910.2646933333336 1328.322912 939.1666666666672C1299.1919733333334 968.2974933333336 1263.1540320000001 982.9164800000004 1220.2604213333334 982.9164800000004zM955.354176 814.260533333333H1199.6979306666667V256.8854399999994H955.354176z" />
    <glyph glyph-name="forward-5"
      unicode="&#xF11F;"
      horiz-adv-x="1792" d=" M1101.6480533333333 1754.6666666666667L1010.856 1663.9608533333333L1183.5338666666667 1491.2829866666668H1132.6037333333334C1021.92384 1491.2829866666668 918.23648 1470.6055466666667 821.576 1429.2850133333336C724.91552 1387.96448 640.4469866666666 1331.1659200000004 568.1360533333333 1258.8553600000005C495.8254933333333 1186.5444266666675 439.0269333333333 1102.075893333334 397.7064 1005.4154133333342C356.3858666666667 908.7553066666674 335.7084266666667 805.067573333334 335.7084266666667 694.3876800000012H468.5243733333334C468.5243733333334 879.4441600000009 531.24288 1036.3785600000012 656.6802666666666 1165.2095466666678C782.1172799999999 1294.0409066666678 937.06928 1358.4670400000014 1121.5358933333334 1358.4670400000014H1170.2178133333334L1008.6940266666666 1196.857386666668L1101.6480533333333 1103.9033600000014L1427.0297066666665 1429.2850133333347zM736.4041066666667 947.9138666666668V429.3613333333338H1161.3112V241.9834666666673H736.4041066666667V74.6666666666665H1211.5495466666666C1242.7792533333331 74.6666666666665 1269.4856533333332 85.8233600000003 1291.7926933333333 108.1300266666669C1314.0993599999997 130.4370666666669 1325.2560533333333 157.1434666666669 1325.2560533333333 188.3728000000003V479.5130666666664C1325.2560533333333 510.7427733333334 1314.09936 537.5357866666666 1291.7926933333333 559.8424533333332C1269.4856533333332 582.1491199999996 1242.7792533333331 593.3058133333334 1211.5495466666666 593.3058133333334H903.72128V783.969386666667H1325.2560533333333V947.9138666666668z" />
    <glyph glyph-name="forward-10"
      unicode="&#xF120;"
      horiz-adv-x="1792" d=" M863.1064586666666 1754.6666666666667L774.038048 1665.6830400000001L943.437712 1496.2834133333333H893.4745866666667C784.8960373333334 1496.2834133333333 683.1768906666667 1475.9983466666665 588.3516426666667 1435.46256C493.5263573333334 1394.9263999999998 410.6614773333334 1339.2064 339.7235146666668 1268.2682133333333C268.7855146666667 1197.3303999999998 213.065328 1114.465333333333 172.5293546666667 1019.64016C131.9933813333334 924.814986666667 111.7083520000001 823.0958400000002 111.7083520000001 714.5170666666668H242.0027306666668C242.0027306666668 896.0604800000001 303.5307146666667 1050.0153066666667 426.5864213333334 1176.400586666667C549.6420906666668 1302.7858666666666 701.6524853333334 1365.9889600000004 882.6167093333335 1365.9889600000004H930.3743306666668L771.9173653333336 1207.4473600000001L863.1064586666668 1116.25808L1182.3107146666669 1435.4625600000004zM507.681104 953.8991466666668V788.8257066666666H689.5503253333334V74.6666666666665H858.0168426666667V953.8991466666668zM1184.7706826666667 953.8991466666668C1142.7737066666666 953.8991466666668 1107.6280693333333 939.7830399999998 1079.3306346666666 911.4854933333332C1050.80864 882.963573333333 1036.4929866666666 847.7033599999999 1036.4929866666666 805.7063466666664V222.8594666666663C1036.4929866666666 180.862453333333 1050.6939146666666 145.7172266666669 1078.9913493333333 117.4196800000002C1107.5133813333332 88.8977600000001 1142.7737066666666 74.6666666666665 1184.7706826666667 74.6666666666665H1464.3608C1506.3578133333333 74.6666666666665 1541.5034133333331 88.7827733333329 1569.8005866666667 117.0803199999996C1598.32288 145.6022399999997 1612.5536 180.862453333333 1612.5536 222.8594666666663V805.7063466666664C1612.5536 847.7033599999999 1598.4374933333334 882.8489599999999 1570.1399466666667 911.1465066666666C1541.6180266666668 939.6684266666668 1506.3578133333333 953.8991466666668 1464.3608 953.8991466666668zM1204.9595413333332 788.8257066666666H1444.17168V243.1333333333328H1204.9595413333332z" />
    <glyph glyph-name="forward-30"
      unicode="&#xF121;"
      horiz-adv-x="1792" d=" M953.8155573333333 1754.6666666666667L862.8455360000002 1663.7831466666664L1035.861904 1490.7670399999997H984.8320533333334C873.935328 1490.7670399999997 770.044464 1470.0489066666662 673.1947040000001 1428.6473599999995C576.3449066666667 1387.245813333333 491.7108000000001 1330.3359999999993 419.2583360000001 1257.883573333333C346.8057973333335 1185.4311466666663 289.8959840000001 1100.7972266666661 248.4945493333334 1003.9470933333334C207.0931146666668 907.0973333333334 186.3750186666668 803.2065066666665 186.3750186666668 692.31008H319.4511786666668C319.4511786666668 877.729066666667 382.2928106666668 1034.97072 507.9757760000002 1164.0544533333334C633.6587040000002 1293.1381866666666 788.9145226666668 1357.69088 973.7423733333334 1357.69088H1022.5196426666668L860.6795680000001 1195.7638933333335L953.8155573333333 1102.6280533333336L1279.834864 1428.6473600000002zM522.53096 988.1789866666668V813.1700266666666H906.9443413333335V617.1946666666665H646.4234933333333V442.1857066666662H906.9443413333335V249.6756266666662H522.53096V74.6666666666665H926.0047253333335C965.6108746666667 74.6666666666665 998.759552 89.4234133333337 1025.5519306666667 118.9387733333329C1052.3443093333335 148.4541333333332 1065.7520533333336 185.0777599999997 1065.7520533333336 228.7092266666664V834.1364266666666C1065.7520533333336 877.7678933333333 1052.3443093333335 914.3915200000002 1025.5519306666667 943.90688C998.7595520000002 973.4222399999998 965.6108746666667 988.1789866666668 926.0047253333335 988.1789866666668zM1313.017290666667 981.9413333333335C1270.1236426666667 981.9413333333335 1234.2276800000002 967.4369600000005 1205.3260800000003 938.53536C1176.1951040000001 909.4045333333336 1161.5738400000002 873.3913066666669 1161.5738400000002 830.4975466666665V235.2937066666659C1161.5738400000002 192.3999466666655 1176.0779146666669 156.5043199999991 1204.9795146666668 127.6027199999994C1234.1104906666667 98.4718933333325 1270.1236426666667 83.9369066666657 1313.017290666667 83.9369066666657H1598.5763733333335C1641.4701333333337 83.9369066666657 1677.3661333333334 98.3546666666657 1706.2677333333338 127.2558933333319C1735.3985600000005 156.3870933333324 1749.9331733333338 192.3999466666655 1749.9331733333338 235.293706666665V830.4975466666649C1749.9331733333338 873.3913066666647 1735.5157866666668 909.2873066666648 1706.614186666667 938.188906666665C1677.4833600000002 967.3197333333314 1641.4701333333335 981.941333333332 1598.5763733333335 981.941333333332zM1333.6371253333336 813.3432533333336H1577.8701866666668V255.913653333334H1333.6371253333336z" />
    <glyph glyph-name="audio"
      unicode="&#xF122;"
      horiz-adv-x="1792" d=" M896 1717.3333333333333C524.9066666666668 1717.3333333333333 224 1416.4266666666667 224 1045.3333333333333V522.6666666666665C224 399.0933333333333 324.4266666666667 298.6666666666665 448 298.6666666666665H672V896H373.3333333333334V1045.3333333333333C373.3333333333334 1333.92 607.4133333333334 1568 896 1568S1418.6666666666667 1333.92 1418.6666666666667 1045.3333333333333V896H1120V298.6666666666665H1344C1467.5733333333335 298.6666666666665 1568 399.0933333333333 1568 522.6666666666665V1045.3333333333333C1568 1416.4266666666667 1267.0933333333332 1717.3333333333333 896 1717.3333333333333z" />
    <glyph glyph-name="next-item"
      unicode="&#xF123;"
      horiz-adv-x="1792" d=" M448 448L1082.6666666666667 896L448 1344V448zM1194.6666666666667 1344V448H1344V1344H1194.6666666666667z" />
    <glyph glyph-name="previous-item"
      unicode="&#xF124;"
      horiz-adv-x="1792" d=" M448 1344H597.3333333333334V448H448zM709.3333333333334 896L1344 448V1344z" />
    <glyph glyph-name="shuffle"
      unicode="&#xF125;"
      horiz-adv-x="1792" d=" M790.3466666666668 1107.3066666666666L404.3200000000001 1493.3333333333333L298.6666666666667 1387.6799999999998L684.6933333333334 1001.6533333333332L790.3466666666668 1107.3066666666664zM1082.6666666666667 1493.3333333333333L1235.3600000000001 1340.6399999999999L298.6666666666667 404.32L404.3200000000001 298.6666666666665L1341.0133333333335 1235.3600000000001L1493.3333333333335 1082.6666666666665V1493.3333333333333H1082.6666666666667zM1107.3066666666668 790.3466666666667L1001.6533333333334 684.6933333333334L1235.36 450.9866666666667L1082.6666666666667 298.6666666666665H1493.3333333333335V709.3333333333333L1340.6399999999999 556.6399999999999L1107.3066666666666 790.3466666666664z" />
    <glyph glyph-name="cast"
      unicode="&#xF126;"
      horiz-adv-x="1792" d=" M1568 1568H224C141.4933333333334 1568 74.6666666666667 1501.1733333333332 74.6666666666667 1418.6666666666665V1194.6666666666665H224V1418.6666666666665H1568V373.3333333333333H1045.3333333333335V224H1568C1650.506666666667 224 1717.3333333333335 290.8266666666666 1717.3333333333335 373.3333333333333V1418.6666666666665C1717.3333333333335 1501.1733333333332 1650.506666666667 1568 1568 1568zM74.6666666666667 448V224H298.6666666666667C298.6666666666667 347.5733333333333 198.2400000000001 448 74.6666666666667 448zM74.6666666666667 746.6666666666665V597.3333333333333C280.7466666666667 597.3333333333333 448 430.0799999999997 448 224H597.3333333333334C597.3333333333334 512.5866666666668 363.2533333333334 746.6666666666665 74.6666666666667 746.6666666666665zM74.6666666666667 1045.3333333333333V896C445.76 896 746.6666666666667 595.0933333333332 746.6666666666667 224H896C896 677.5999999999999 528.2666666666668 1045.3333333333333 74.6666666666667 1045.3333333333333z" />
    <glyph glyph-name="picture-in-picture-enter"
      unicode="&#xF127;"
      horiz-adv-x="1792" d=" M1418.6666666666667 970.6666666666666H821.3333333333334V523.0399999999997H1418.6666666666667V970.6666666666666zM1717.3333333333335 373.3333333333333V1420.1599999999999C1717.3333333333335 1502.2933333333333 1650.1333333333334 1568 1568 1568H224C141.8666666666667 1568 74.6666666666667 1502.2933333333333 74.6666666666667 1420.1599999999999V373.3333333333333C74.6666666666667 291.1999999999998 141.8666666666667 224 224 224H1568C1650.1333333333334 224 1717.3333333333335 291.1999999999998 1717.3333333333335 373.3333333333333zM1568 371.8399999999999H224V1420.9066666666668H1568V371.8399999999999z" />
    <glyph glyph-name="picture-in-picture-exit"
      unicode="&#xF128;"
      horiz-adv-x="2190.222222222222" d=" M1792 1393.7777777777778H398.2222222222223V398.2222222222222H1792V1393.7777777777778zM2190.222222222222 199.1111111111111V1594.88C2190.222222222222 1704.391111111111 2100.6222222222223 1792 1991.1111111111113 1792H199.1111111111111C89.6 1792 0 1704.391111111111 0 1594.88V199.1111111111111C0 89.5999999999999 89.6 0 199.1111111111111 0H1991.1111111111113C2100.6222222222223 0 2190.222222222222 89.5999999999999 2190.222222222222 199.1111111111111zM1991.1111111111113 197.1200000000001H199.1111111111111V1595.8755555555556H1991.1111111111113V197.1200000000001z" />
    <glyph glyph-name="facebook"
      unicode="&#xF129;"
      horiz-adv-x="1792" d=" M1343 1780V1516H1186Q1100 1516 1070 1480T1040 1372V1183H1333L1294 887H1040V128H734V887H479V1183H734V1401Q734 1587 838 1689.5T1115 1792Q1262 1792 1343 1780z" />
    <glyph glyph-name="linkedin"
      unicode="&#xF12A;"
      horiz-adv-x="1792" d=" M477 1167V176H147V1167H477zM498 1473Q499 1400 447.5 1351T312 1302H310Q228 1302 178 1351T128 1473Q128 1547 179.5 1595.5T314 1644T447 1595.5T498 1473zM1664 744V176H1335V706Q1335 811 1294.5 870.5T1168 930Q1105 930 1062.5 895.5T999 810Q988 780 988 729V176H659Q661 575 661 823T660 1119L659 1167H988V1023H986Q1006 1055 1027 1079T1083.5 1131T1170.5 1174.5T1285 1190Q1456 1190 1560 1076.5T1664 744z" />
    <glyph glyph-name="twitter"
      unicode="&#xF12B;"
      horiz-adv-x="1792" d=" M1684 1384Q1617 1286 1522 1217Q1523 1203 1523 1175Q1523 1045 1485 915.5T1369.5 667T1185 456.5T927 310.5T604 256Q333 256 108 401Q143 397 186 397Q411 397 587 535Q482 537 399 599.5T285 759Q318 754 346 754Q389 754 431 765Q319 788 245.5 876.5T172 1082V1086Q240 1048 318 1045Q252 1089 213 1160T174 1314Q174 1402 218 1477Q339 1328 512.5 1238.5T884 1139Q876 1177 876 1213Q876 1347 970.5 1441.5T1199 1536Q1339 1536 1435 1434Q1544 1455 1640 1512Q1603 1397 1498 1334Q1591 1344 1684 1384z" />
    <glyph glyph-name="tumblr"
      unicode="&#xF12C;"
      horiz-adv-x="1792" d=" M1328 463L1408 226Q1385 191 1297 160T1120 128Q1016 126 929.5 154T787 228T692 334T636.5 454T620 572V1116H452V1331Q524 1357 581 1400.5T672 1490.5T730 1592.5T764 1691.5T779 1780Q780 1785 783.5 1788.5T791 1792H1035V1368H1368V1116H1034V598Q1034 568 1040.5 542T1063 489.5T1112.5 448T1194 434Q1272 436 1328 463z" />
    <glyph glyph-name="pinterest"
      unicode="&#xF12D;"
      horiz-adv-x="1792" d=" M1664 896Q1664 687 1561 510.5T1281.5 231T896 128Q785 128 678 160Q737 253 756 324Q765 358 810 535Q830 496 883 467.5T997 439Q1118 439 1213 507.5T1360 696T1412 966Q1412 1080 1352.5 1180T1180 1343T925 1406Q820 1406 729 1377T574.5 1300T465.5 1189.5T398.5 1060T377 926Q377 822 417 743T534 632Q564 620 572 652Q574 659 580 683T588 713Q594 736 577 756Q526 817 526 907Q526 1058 630.5 1166.5T904 1275Q1055 1275 1139.5 1193T1224 980Q1224 810 1155.5 691T980 572Q919 572 882 615.5T859 720Q867 755 885.5 813.5T915.5 916.5T927 992Q927 1042 900 1075T823 1108Q761 1108 718 1051T675 909Q675 836 700 787L601 369Q584 299 588 192Q382 283 255 473T128 896Q128 1105 231 1281.5T510.5 1561T896 1664T1281.5 1561T1561 1281.5T1664 896z" />
    <glyph glyph-name="audio-description"
      unicode="&#xF12E;"
      horiz-adv-x="1792" d=" M795.5138904615 457.270933L795.5138904615 1221.5248286325C971.84576475 1225.085121904 1107.39330415 1232.12360523 1207.223857 1161.5835220499998C1303.033991 1093.8857027 1377.7922305 962.20560625 1364.3373135 792.9476205000001C1350.102593 613.9029365000001 1219.6655764999998 463.4600215 1050.12389545 448.2843645000001C965.8259268 440.7398275000001 798.21890505 448.2843645000001 798.21890505 448.2843645000001C798.21890505 448.2843645000001 795.2791410655 453.016494 795.5138904615 457.270933M966.1564647 649.0863960000001C1076.16084135 644.6767075 1152.385591 707.3020429999999 1163.8910079999998 807.9351875C1179.2994744999999 942.71878505 1089.73043585 1030.3691748 960.74508635 1020.7227954L960.74508635 658.08043C960.6196169500002 652.9482330000001 962.7606933 650.3134680000001 966.1564647 649.0863960000001 M1343.2299685 457.3517725000002C1389.9059734 444.3690160000001 1404.0840274999998 496.0596970000001 1424.48294065 532.2791494999999C1469.0084255 611.2788500000001 1502.5101322 712.8584189999999 1503.0416912 828.9881705C1503.8147453000001 995.5680973 1438.8404296 1117.7973688000002 1378.4383305 1200.62456881045L1348.652139905 1200.62456881045C1346.6001063899998 1187.06858424 1356.44474056 1175.024791325 1362.18395859 1164.6588891000001C1408.2649952 1081.49431985 1450.96645015 966.7230041 1451.57490975 834.9817034999999C1452.27106325 683.8655425000002 1402.00636065 557.5072264999999 1343.2299685 457.3517725000002 M1488.0379675 457.3517725000002C1534.7139723999999 444.3690160000001 1548.8825828 496.0671625 1569.29093965 532.2791494999999C1613.8164245 611.2788500000001 1647.3113856500001 712.8584189999999 1647.8496902000002 828.9881705C1648.6227442999998 995.5680973 1583.6484286 1117.7973688000002 1523.2463295 1200.62456881045L1493.460138905 1200.62456881045C1491.40810539 1187.06858424 1501.250041305 1175.021805755 1506.9919575899999 1164.6588891000001C1553.0729942 1081.49431985 1595.7757984 966.7230041 1596.3829087499998 834.9817034999999C1597.07906225 683.8655425000002 1546.8143596500001 557.5072264999999 1488.0379675 457.3517725000002 M1631.9130380000001 457.3517725000002C1678.5890429 444.3690160000001 1692.7576533 496.0671625 1713.1660101500001 532.2791494999999C1757.691495 611.2788500000001 1791.1864561500001 712.8584189999999 1791.7247607000002 828.9881705C1792.4978148 995.5680973 1727.5234991000002 1117.7973688000002 1667.1214 1200.62456881045L1637.3352094050001 1200.62456881045C1635.28317589 1187.06858424 1645.1251118050002 1175.02329854 1650.86702809 1164.6588891000001C1696.9480647 1081.49431985 1739.64951965 966.7230041 1740.25797925 834.9817034999999C1740.95413275 683.8655425000002 1690.6894301500001 557.5072264999999 1631.9130380000001 457.3517725000002 M15.66796875 451.481947L254.03034755 451.481947L319.0356932 551.1747990000001L543.6261075 551.6487970000001C543.6261075 551.6487970000001 543.8541115 483.7032095 543.8541115 451.481947L714.4993835 451.481947L714.4993835 1230.9210795L508.643051 1230.9210795C488.8579955 1197.5411595 15.66796875 451.481947 15.66796875 451.481947L15.66796875 451.481947zM550.0048155000001 959.9708615L550.0048155000001 710.916297L408.4199 711.8642895L550.0048155000001 959.9708615L550.0048155000001 959.9708615z" />
  </font>
</defs>
</svg>
